Login
Username:
Password:
[Signup]
[Recover Account]


Browse Torrents

Poll


You must be logged in to view polls



Latest Torrents
God.Bless.The.Brok...
- [Size: 4.43 GB]

Berlin.Station.S03...
- [Size: 1.24 GB]

Berlin.Station.S03...
- [Size: 1.24 GB]

Berlin.Station.S03...
- [Size: 456.65 MB]

Christmas.on.Honey...
- [Size: 694.99 MB]


Torrent Details For " Jaane Kyun De Yaaron 2018 x264 720p HD Esub Hindi GOPISAHI"

Jaane Kyun De Yaaron 2018 x264 720p HD Esub Hindi GOPISAHI

Download this torrent | Magnet Download
Health:
Seeds: 153
Leechers: 138
Completed: 508 
Last Checked: 06-12-2018 14:19:43
External Torrent
Update Stats



Images Host

Poster
No poster


Watch-Free-HD     Download

Details
Name: Jaane Kyun De Yaaron 2018 x264 720p HD Esub Hindi GOPISAHI
Description:
 http://www.gopisahi.pw/

Format                         : Matroska
Format version                 : Version 4 / Version 2
File size                      : 698 MiB
Duration                       : 2 h 2 min
Overall bit rate               : 798 kb/s
Movie name                     : Jaane Kyun De Yaaron 2018 GOPISAHI

Video
Format                         : AVC
Format/Info                    : Advanced Video Codec
Codec ID                       : V_MPEG4/ISO/AVC
Duration                       : 2 h 2 min
Bit rate                       : 699 kb/s
Width                          : 1 280 pixels
Height                         : 544 pixels
Display aspect ratio           : 2.35:1
Frame rate mode                : Constant
Frame rate                     : 25.000 FPS
Color space                    : YUV
Chroma subsampling             : 4:2:0
Bit depth                      : 8 bits
Scan type                      : Progressive
Bits/(Pixel*Frame)             : 0.040
Stream size                    : 611 MiB (88%)
Title                          : GOPISAHI
Writing library                : x264 core 155 r2901 7d0ff22

Audio
Format                         : AAC
Duration                       : 2 h 2 min
Bit rate                       : 96.0 kb/s
Channel(s)                     : 2 channels
Channel positions              : Front: L R
Sampling rate                  : 48.0 kHz
Frame rate                     : 46.875 FPS (1024 SPF)
Compression mode               : Lossy
Delay relative to video        : -21 ms
Stream size                    : 84.2 MiB (12%)
Title                          : GOPISAHI
Language                       : Hindi

Text
Language                       : English


Category:Movies > Bollywood
Lang:Hindi
Total Size:697.53 MB
Info Hash:1ae0f616d7c93eedc974f5c3b073922c93a1cb8a
Added By:gopisahi
Date Added:06-12-2018 02:25:32
Downloads:206

Ratings:Not Yet Rated (Log in to rate it)


Tracker:
udp://tracker.coppersurfer.tk:6969/announce


File List: 


Comments

No comments still posted

Top
Copyright 2018 DownloadHD -|- Page Generated In 0.529561 secs.
-|- RSS Feed -|- Feed Info