Login
Username:
Password:
[Signup]
[Recover Account]


Browse Torrents

Poll


You must be logged in to view polls



Latest Torrents
Berlin.Station.S03...
- [Size: 456.65 MB]

Christmas.on.Honey...
- [Size: 694.99 MB]

Children.Of.The.Wh...
- [Size: 426.34 MB]

Christmas.Pen.Pals...
- [Size: 1.19 GB]

Christmas.Pen.Pals...
- [Size: 1.18 GB]


Torrent Details For " Dil Juunglee 2018 x264 720p Esub Zee5 Hindi GOPISAHI"

Dil Juunglee 2018 x264 720p Esub Zee5 Hindi GOPISAHI

Download this torrent | Magnet Download
Health:
Seeds: 84
Leechers: 139
Completed: 185 
Last Checked: 06-12-2018 14:13:03
External Torrent
Update Stats



Images Host

Poster
No poster


Watch-Free-HD     Download

Details
Name: Dil Juunglee 2018 x264 720p Esub Zee5 Hindi GOPISAHI
Description:
 http://www.gopisahi.pw/


Format                         : Matroska
Format version                 : Version 4 / Version 2
File size                      : 663 MiB
Duration                       : 1 h 56 min
Overall bit rate               : 797 kb/s
Movie name                     : Dil Juunglee 2018 GOPISAHI

Video
Format                         : AVC
Codec ID                       : V_MPEG4/ISO/AVC
Duration                       : 1 h 56 min
Bit rate                       : 699 kb/s
Width                          : 1 280 pixels
Height                         : 538 pixels
Display aspect ratio           : 2.40:1
Frame rate mode                : Constant
Frame rate                     : 23.976 (24000/1001) FPS
Color space                    : YUV
Chroma subsampling             : 4:2:0
Bit depth                      : 8 bits
Scan type                      : Progressive
Bits/(Pixel*Frame)             : 0.042
Stream size                    : 581 MiB (88%)
Title                          : GOPISAHI
Writing library                : x264 core 155 r2901 7d0ff22

Audio
Format                         : AAC
Duration                       : 1 h 56 min
Bit rate                       : 96.0 kb/s
Channel(s)                     : 2 channels
Channel positions              : Front: L R
Sampling rate                  : 48.0 kHz
Frame rate                     : 46.875 FPS (1024 SPF)
Compression mode               : Lossy
Delay relative to video        : 5 ms
Stream size                    : 80.1 MiB (12%)
Title                          : GOPISAHI
Language                       : Hindi


Category:Movies > Bollywood
Lang:Hindi
Total Size:663.30 MB
Info Hash:999cc7479058de11d1d1e872875612162d860e63
Added By:gopisahi
Date Added:06-12-2018 07:52:18
Downloads:218

Ratings:Not Yet Rated (Log in to rate it)


Tracker:
udp://tracker.coppersurfer.tk:6969/announce


File List: 


Comments

No comments still posted

Top
Copyright 2018 DownloadHD -|- Page Generated In 0.868325 secs.
-|- RSS Feed -|- Feed Info