Login
Username:
Password:
[Signup]
[Recover Account]


Browse Torrents

Poll


You must be logged in to view polls



Latest Torrents
God.Bless.The.Brok...
- [Size: 684.54 MB]

Supreme Khiladi 2 ...
- [Size: 455.25 MB]

God.Bless.The.Brok...
- [Size: 7.74 GB]

Supreme Khiladi 2 ...
- [Size: 1.37 GB]

NCIS.Los.Angeles.S...
- [Size: 325.41 MB]


Torrent Details For "Dil Juunglee (2018) Hindi 720p WEB-HD x264 AC3-Sun George"

Dil Juunglee (2018) Hindi 720p WEB-HD x264 AC3-Sun George

Download this torrent | Magnet Download
Health:
Seeds: 40
Leechers: 409
Completed:
Last Checked: 06-12-2018 10:22:29
External Torrent
Update Stats



Images Host

Poster


iMDB
Title: Dil Juunglee
Year: 2018
Runtime: 124 minutes
Votes: 127
Rating: 5.7/10
Language: Hindi
Director: Aleya Sen
Writing By: Surabhi Bhatnagar,Aleya Sen,Aleya Sen,Tonoya sen Sharma,Shiv Singh,Shiv Singh,
Produced By: Jackky Bhagnani,Vashu Bhagnani,Deepshika Deshmukh,Kapil Madnani,Yogiraj Shetty,
Cast:
Tapsee Pannu as Koroli
Saqib Saleem as Sumit
Nidhi Singh as Ayesha
Srishti Shrivastava as Shumi
Ayesha Kaduskar as Geetika
Abhilash Thapliyal as Prashant
Santosh Barmola as Jai
Deepshikha Arora as Party Guest / Lead Dancer
Kishore Bhatt as Boardroom Executive
Mohit Chhabra as Goon
Trailers:
Dil Juunglee - Movie Trailer 2
Dil Juunglee - Movie Trailer


Watch-Free-HD     Download

Details
Name:Dil Juunglee (2018) Hindi 720p WEB-HD x264 AC3-Sun George
Description:
Dil Juunglee (2018) Hindi 720p WEB-HD x264 AC3-Sun George






 



===================================================================

General
Format                                   : Matroska
Format version                           : Version 4 / Version 2
File size                                : 1.49 GiB
Duration                                 : 1 h 56 min
Overall bit rate                         : 1 823 kb/s
Movie name : Dil Juunglee (2018) Hindi 720p WEB-HD x264 AC3-Sun George

===================================================================

Video
ID                                       : 1
Format                                   : AVC
Format/Info                              : Advanced Video Codec
Format profile                           : [email protected]
Format settings                          : CABAC / 5 Ref Frames
Format settings, CABAC                   : Yes
Format settings, RefFrames               : 5 frames
Codec ID                                 : V_MPEG4/ISO/AVC
Duration                                 : 1 h 56 min
Bit rate                                 : 1 650 kb/s
Width                                    : 1 280 pixels
Height                                   : 720 pixels
Display aspect ratio                     : 16:9
Frame rate mode                          : Constant
Frame rate                               : 25.000 FPS
Color space                              : YUV
Chroma subsampling                       : 4:2:0
Bit depth                                : 8 bits
Scan type                                : Progressive
Bits/(Pixel*Frame)                       : 0.072
Stream size                              : 1.33 GiB (90%)
Title                                    : Sun George

===================================================================

Audio
ID                                       : 2
Format                                   : AC-3
Format/Info                              : Audio Coding 3
Codec ID                                 : A_AC3
Duration                                 : 1 h 54 min
Bit rate mode                            : Constant
Bit rate                                 : 192 kb/s
Channel(s)                               : 2 channels
Channel positions                        : Front: L R
Sampling rate                            : 48.0 kHz
Frame rate                               : 31.250 FPS (1536 SPF)
Bit depth                                : 16 bits
Compression mode                         : Lossy
Stream size                              : 157 MiB (10%)
Title                                    : Sun George
Language                                 : Hindi
Service kind                             : Complete Main
Default                                  : Yes
Forced                                   : No




 

 

 

 

 

 

 

 

 
Category:Movies > Bollywood
Lang:Hindi
Total Size:1.53 GB
Info Hash:dab44eeadf40d73273561efbc4372708dc1fbc0c
Added By:sungeorge
Date Added:06-12-2018 09:38:04
Downloads:359

Ratings:Not Yet Rated (Log in to rate it)


Tracker:
udp://tracker.pirateparty.gr:6969/announce

This Torrent also has backup trackers
URLSeedersLeechersCompleted
http://tracker.fastdownload.xyz:443/announce3320
http://retracker.telecom.by:80/announce000
http://seeders-paradise.org:443/announce000
http://share.camoe.cn:8080/announce000


File List: 



NFO:

Comments

No comments still posted

Top
Copyright 2018 DownloadHD -|- Page Generated In 1.500586 secs.
-|- RSS Feed -|- Feed Info